osu file format v14

[General]
AudioFilename: Love Live Medley.mp3
AudioLeadIn: 1500
PreviewTime: 432847
Countdown: 0
SampleSet: Soft
StackLeniency: 0.7
Mode: 3
LetterboxInBreaks: 1
WidescreenStoryboard: 1

[Editor]
DistanceSpacing: 0.8
BeatDivisor: 4
GridSize: 4
TimelineZoom: 1.3

[Metadata]
Title:Love Live! piano medley
TitleUnicode:ラブライブ!ピアノメドレー
Artist:u's
ArtistUnicode:μ's
Creator:[Hoshi Yurin]
Version:Live!
Source:ラブライブ!School idol project
Tags:
BeatmapID:650178
BeatmapSetID:288278

[Difficulty]
HPDrainRate:5
CircleSize:4
OverallDifficulty:4
ApproachRate:5
SliderMultiplier:1.40000000596046
SliderTickRate:1

[Events]
//Background and Video events
0,0,"13 (8).jpg",0,0
//Break Periods
2,72830,80242
//Storyboard Layer 0 (Background)
//Storyboard Layer 1 (Fail)
//Storyboard Layer 2 (Pass)
//Storyboard Layer 3 (Foreground)
//Storyboard Sound Samples

[TimingPoints]
1300,600,4,2,0,100,1,0
1300,-200,4,2,0,100,0,0
1900,-50,4,2,0,100,0,0
2481,-200,4,2,0,100,0,0
3391,-50,4,2,0,100,0,0
3651,-100,4,2,0,100,0,0
6091,-200,4,2,0,100,0,0
6661,-100,4,2,0,100,0,0
7300,-200,4,2,0,100,0,0
7900,-100,4,2,0,100,0,0
8200,-200,4,2,0,100,0,0
8650,-50,4,2,0,100,0,0
8800,-200,4,2,0,100,0,0
8950,-50,4,2,0,100,0,0
9100,-200,4,2,0,100,0,0
9250,-50,4,2,0,100,0,0
9400,-200,4,2,0,100,0,0
9550,-50,4,2,0,100,0,0
9700,-200,4,2,0,100,0,0
9850,-50,4,2,0,100,0,0
10000,-200,4,2,0,100,0,0
10150,-50,4,2,0,100,0,0
10300,-200,4,2,0,100,0,0
10450,-50,4,2,0,100,0,0
10600,-200,4,2,0,100,0,0
10750,-50,4,2,0,100,0,0
10900,-200,4,2,0,100,0,0
11200,-100,4,2,0,100,0,0
19450,-100,4,2,0,30,0,0
20500,500,4,2,0,50,1,0
21875,-66.6666666666667,4,2,0,70,0,0
22000,-57.1428571428571,4,2,0,75,0,0
22125,-50,4,2,0,80,0,0
22250,-50,4,2,0,90,0,0
22462,315.789473684211,4,2,0,100,1,0
32567,-100,4,2,0,100,0,0
41409,-80,4,2,0,100,0,0
42618,306.122448979592,4,2,0,100,1,1
45128,-80,4,2,0,100,0,1
46353,-100,4,2,0,100,0,1
47271,-66.6666666666667,4,2,0,100,0,1
47884,-100,4,2,0,100,0,1
48802,-66.6666666666667,4,2,0,100,0,1
49414,-100,4,2,0,100,0,1
51098,-90.9090909090909,4,2,0,100,0,1
52475,-100,4,2,0,100,0,1
52575,-400,4,2,0,100,0,1
52782,-100,4,2,0,100,0,1
52935,-400,4,2,0,100,0,1
53074,-100,4,2,0,100,0,1
53164,-400,4,2,0,100,0,1
53241,-100,4,2,0,100,0,1
53317,-400,4,2,0,100,0,1
53394,-100,4,2,0,100,0,1
53700,-100,4,2,0,100,0,1
53853,-400,4,2,0,100,0,1
54006,-100,4,2,0,100,0,1
54159,-400,4,2,0,100,0,1
54312,-100,4,2,0,100,0,1
54389,-400,4,2,0,100,0,1
54465,-100,4,2,0,100,0,1
54542,-400,4,2,0,100,0,1
54618,-100,4,2,0,100,0,1
56163,-66.6666666666667,4,2,0,100,0,1
56240,-400,4,2,0,100,0,1
56316,-66.6666666666667,4,2,0,100,0,1
56393,-400,4,2,0,100,0,1
56532,-66.6666666666667,4,2,0,100,0,1
56761,-100,4,2,0,100,0,1
56838,-400,4,2,0,100,0,1
57067,-25,4,2,0,100,0,1
57144,-400,4,2,0,100,0,1
57220,-25,4,2,0,100,0,1
57297,-400,4,2,0,100,0,1
57680,-25,4,2,0,100,0,1
57756,-400,4,2,0,100,0,1
57986,-25,4,2,0,100,0,1
58062,-400,4,2,0,100,0,1
58292,-25,4,2,0,100,0,1
58368,-400,4,2,0,100,0,1
58445,-25,4,2,0,100,0,1
58521,-400,4,2,0,100,0,1
58904,-25,4,2,0,100,0,1
58981,-400,4,2,0,100,0,1
59210,-25,4,2,0,100,0,1
59287,-100,4,2,0,100,0,1
59822,-90.9090909090909,4,2,0,100,0,1
60435,-83.3333333333333,4,2,0,100,0,1
61047,-74.0740740740741,4,2,0,100,0,1
61583,-66.6666666666667,4,2,0,100,0,1
62250,307.692307692308,4,2,0,100,1,0
62250,-400,4,2,0,100,0,0
62557,-100,4,2,0,100,0,0
62865,-400,4,2,0,100,0,0
63173,-100,4,2,0,100,0,0
64173,-66.6666666666667,4,2,0,100,0,0
64480,-100,4,2,0,100,0,0
64711,-400,4,2,0,100,0,0
65019,-100,4,2,0,100,0,0
65326,-400,4,2,0,100,0,0
65634,-100,4,2,0,100,0,0
66634,-66.6666666666667,4,2,0,100,0,0
66942,-100,4,2,0,100,0,0
67173,-90.9090909090909,4,2,0,100,0,0
67788,-80,4,2,0,100,0,0
68403,-71.4285714285714,4,2,0,100,0,0
68942,-66.6666666666667,4,2,0,100,0,0
69630,375,4,2,0,100,1,0
71036,-1000,4,2,0,100,0,0
72067,-50,4,2,0,100,0,0
72617,-100,4,2,0,100,0,0
72630,-10,4,2,0,100,0,0
80880,-100,4,2,0,100,0,0
99648,400,4,2,0,100,1,1
128448,363.636363636364,4,2,0,100,1,0
176444,451.127819548872,4,2,0,100,1,0
190920,-100,4,2,0,100,0,1
225067,363.636363636364,4,2,0,100,1,1
249794,-100,4,2,0,100,0,0
261430,437.956204379562,4,2,0,100,1,0
275444,-100,4,2,0,100,0,1
303473,346.820809248555,4,2,0,100,1,0
320120,-100,4,2,0,100,0,1
342316,-100,4,2,0,100,0,0
353415,400,4,2,0,100,1,0
355015,400,4,2,0,100,1,0
361415,-100,4,2,0,100,0,1
390215,-100,4,2,0,100,0,0
403015,666.666666666667,4,2,0,100,1,0
403681,666.666666666667,4,2,0,100,1,0
433014,333.333333333333,4,2,0,100,1,1
466347,-100,4,2,0,100,0,0

[HitObjects]
64,192,1300,128,2,1900:0:0:0:0:
320,192,1300,128,2,1900:0:0:0:0:
448,192,1600,1,2,0:2:0:0:
192,192,1900,1,10,2:2:0:0:
64,192,2500,128,2,3400:0:0:0:0:
320,192,2800,128,2,3400:0:0:0:0:
192,192,3100,1,10,0:2:0:0:
448,192,3400,1,0,2:2:0:0:
192,192,3400,1,0,2:2:0:0:
64,192,3700,1,2,2:2:0:0:
448,192,3700,1,2,0:2:0:0:
192,192,4000,1,2,2:2:0:0:
320,192,4300,1,10,2:2:0:0:
448,192,4600,1,0,2:2:0:0:
64,192,4600,1,0,0:2:0:0:
320,192,4900,1,2,2:2:0:0:
192,192,5200,1,2,2:2:0:0:
448,192,5200,1,2,0:2:0:0:
64,192,5500,128,10,6100:0:0:0:0:
320,192,5800,1,0,0:2:0:0:
448,192,6100,128,2,6700:0:0:0:0:
320,192,6100,128,2,6700:0:0:0:0:
64,192,6400,1,2,0:2:0:0:
64,192,6700,128,10,7300:0:0:0:0:
320,192,7000,1,0,0:2:0:0:
320,192,7300,1,2,2:2:0:0:
448,192,7300,1,2,2:2:0:0:
448,192,7600,128,2,8200:0:0:0:0:
192,192,7600,1,2,2:2:0:0:
64,192,7600,1,2,2:2:0:0:
192,192,7900,1,10,0:2:0:0:
64,192,8200,128,0,10900:0:0:0:0:
448,192,8500,128,2,8800:0:0:0:0:
320,192,8800,128,2,9100:0:0:0:0:
192,192,9100,128,10,9400:0:0:0:0:
320,192,9400,128,0,9700:0:0:0:0:
448,192,9700,128,2,10000:0:0:0:0:
192,192,10000,128,2,10300:0:0:0:0:
320,192,10300,128,10,10600:0:0:0:0:
448,192,10600,128,0,10900:0:0:0:0:
192,192,10900,1,2,2:2:0:0:
320,192,10900,1,2,2:2:0:0:
192,192,11200,1,2,0:2:0:0:
320,192,11200,1,2,0:2:0:0:
64,192,11500,128,10,12100:0:0:0:0:
448,192,11800,1,0,0:2:0:0:
448,192,12100,128,2,12400:0:0:0:0:
192,192,12400,128,2,13000:0:0:0:0:
448,192,12700,1,10,0:2:0:0:
320,192,13000,128,0,13300:0:0:0:0:
64,192,13600,1,2,2:2:0:0:
448,192,13600,1,2,2:2:0:0:
448,192,13900,1,10,0:2:0:0:
64,192,13900,1,10,0:2:0:0:
192,192,14200,1,0,2:2:0:0:
320,192,14200,1,0,2:2:0:0:
64,192,14500,1,2,2:2:0:0:
192,192,14500,1,2,2:2:0:0:
192,192,14800,1,2,2:2:0:0:
320,192,14800,1,2,2:2:0:0:
320,192,15100,1,10,2:2:0:0:
448,192,15100,1,10,2:2:0:0:
192,192,15400,1,0,0:2:0:0:
320,192,15400,1,0,0:2:0:0:
448,192,15700,1,2,2:2:0:0:
64,192,15700,1,2,2:2:0:0:
192,192,15700,1,2,2:2:0:0:
320,192,15700,1,2,2:2:0:0:
64,192,16000,1,2,2:2:0:0:
448,192,16300,1,10,2:2:0:0:
320,192,16600,1,0,2:2:0:0:
64,192,16900,1,2,0:2:0:0:
192,192,17200,1,2,2:2:0:0:
320,192,17200,1,2,2:2:0:0:
192,192,17500,1,10,2:2:0:0:
320,192,17500,1,10,2:2:0:0:
192,192,17800,1,0,2:2:0:0:
320,192,17800,1,0,2:2:0:0:
64,192,18100,1,2,2:2:0:0:
448,192,18400,128,2,22375:0:0:0:0:
64,192,18700,1,2,2:2:0:0:
320,192,19000,1,2,2:2:0:0:
192,192,19300,1,2,2:2:0:0:
64,192,19375,128,2,22375:0:0:0:0:
192,192,19900,1,2,0:0:0:0:
320,192,20050,1,2,0:0:0:0:
192,192,20200,1,2,0:0:0:0:
320,192,20350,1,2,0:0:0:0:
192,192,20500,1,2,0:0:0:0:
320,192,20625,1,2,0:0:0:0:
192,192,20750,1,2,0:0:0:0:
320,192,20875,1,2,0:0:0:0:
192,192,21000,1,2,0:0:0:0:
320,192,21125,1,2,0:0:0:0:
192,192,21250,1,2,0:0:0:0:
320,192,21375,1,2,0:0:0:0:
192,192,21500,1,2,0:0:0:0:
320,192,21625,1,2,0:0:0:0:
192,192,21750,1,2,0:0:0:0:
320,192,21875,1,2,0:0:0:0:
192,192,21937,1,2,0:0:0:0:
320,192,22000,1,2,0:0:0:0:
192,192,22062,1,2,0:0:0:0:
320,192,22125,1,2,0:0:0:0:
192,192,22187,1,2,0:0:0:0:
320,192,22250,1,2,0:0:0:0:
192,192,22312,1,2,0:0:0:0:
320,192,22375,1,2,0:0:0:0:
192,192,22462,128,2,23093:0:0:0:0:
320,192,22777,1,2,2:2:0:0:
448,192,22777,1,2,2:2:0:0:
320,192,23093,1,2,2:2:0:0:
64,192,23093,1,2,2:2:0:0:
64,192,23409,1,2,2:2:0:0:
448,192,23409,1,2,2:2:0:0:
64,192,23725,1,10,2:2:0:0:
192,192,23725,1,10,2:2:0:0:
320,192,23883,1,10,2:2:0:0:
448,192,23883,1,10,2:2:0:0:
192,192,24040,1,10,2:2:0:0:
320,192,24040,1,10,2:2:0:0:
192,192,24198,1,10,2:2:0:0:
320,192,24198,1,10,2:2:0:0:
192,192,24514,1,10,2:2:0:0:
64,192,24514,1,10,2:2:0:0:
320,192,24672,1,10,2:2:0:0:
448,192,24672,1,10,2:2:0:0:
64,192,24988,1,2,2:2:0:0:
448,192,24988,1,2,2:2:0:0:
192,192,24988,1,2,0:2:0:0:
64,192,25304,1,2,2:2:0:0:
448,192,25304,1,2,2:2:0:0:
320,192,25304,1,2,0:2:0:0:
64,192,25619,1,2,2:2:0:0:
448,192,25619,1,2,2:2:0:0:
64,192,25935,1,2,2:2:0:0:
448,192,25935,1,2,2:2:0:0:
192,192,25935,1,2,0:2:0:0:
320,192,25935,1,2,0:2:0:0:
192,192,26251,1,10,2:2:0:0:
448,192,26251,1,10,0:2:0:0:
320,192,26409,1,10,2:2:0:0:
64,192,26409,1,10,0:2:0:0:
192,192,26567,1,10,2:2:0:0:
448,192,26567,1,10,0:2:0:0:
320,192,26725,1,10,2:2:0:0:
64,192,26725,1,10,0:2:0:0:
192,192,27040,1,10,2:2:0:0:
320,192,27040,1,10,2:2:0:0:
192,192,27198,1,10,2:2:0:0:
320,192,27198,1,10,2:2:0:0:
64,192,27514,128,2,28462:0:0:0:0:
448,192,27514,1,2,0:2:0:0:
192,192,27830,128,2,28462:0:0:0:0:
448,192,27830,1,2,0:2:0:0:
320,192,28146,128,2,28462:0:0:0:0:
448,192,28146,1,2,0:2:0:0:
448,192,28462,1,2,2:2:0:0:
64,192,28777,1,10,2:2:0:0:
320,192,28777,1,10,2:2:0:0:
64,192,28935,1,10,2:2:0:0:
448,192,28935,1,10,2:2:0:0:
448,192,29093,1,10,2:2:0:0:
192,192,29093,1,10,2:2:0:0:
448,192,29251,1,10,2:2:0:0:
64,192,29251,1,10,2:2:0:0:
64,192,29567,1,10,2:2:0:0:
320,192,29567,1,10,2:2:0:0:
192,192,29725,1,10,2:2:0:0:
448,192,29725,1,10,2:2:0:0:
64,192,30040,1,2,2:2:0:0:
192,192,30040,1,2,2:2:0:0:
448,192,30040,1,2,0:2:0:0:
448,192,30356,1,2,2:2:0:0:
320,192,30356,1,2,2:2:0:0:
192,192,30672,1,2,2:2:0:0:
320,192,30672,1,2,2:2:0:0:
64,192,30672,1,2,0:2:0:0:
192,192,30988,1,2,2:2:0:0:
320,192,30988,1,2,2:2:0:0:
448,192,30988,1,2,0:2:0:0:
448,192,31304,1,10,2:2:0:0:
192,192,31304,1,10,2:2:0:0:
192,192,31462,1,10,2:2:0:0:
320,192,31462,1,10,2:2:0:0:
64,192,31619,1,10,2:2:0:0:
320,192,31619,1,10,2:2:0:0:
192,192,31777,1,10,2:2:0:0:
320,192,31777,1,10,2:2:0:0:
64,192,32093,1,10,2:2:0:0:
448,192,32093,1,10,2:2:0:0:
64,192,32251,1,10,2:2:0:0:
448,192,32251,1,10,2:2:0:0:
64,192,32567,128,10,32725:0:0:0:0:
448,192,32567,128,10,32725:0:0:0:0:
192,192,32567,1,10,2:2:0:0:
320,192,32567,1,10,2:2:0:0:
192,192,32725,1,10,2:2:0:0:
320,192,32725,1,10,2:2:0:0:
64,192,32883,128,10,33198:0:0:0:0:
192,192,33198,128,10,33514:0:0:0:0:
448,192,33435,1,10,0:0:0:0:
320,192,33514,128,10,33830:0:0:0:0:
448,192,33830,128,10,34146:0:0:0:0:
192,192,34067,1,10,0:0:0:0:
320,192,34146,128,10,34462:0:0:0:0:
192,192,34462,128,10,34777:0:0:0:0:
64,192,34777,1,2,0:2:0:0:
64,192,34935,1,2,0:2:0:0:
64,192,35093,1,10,0:2:0:0:
448,192,35093,1,10,0:2:0:0:
192,192,35093,1,10,0:2:0:0:
320,192,35093,1,10,0:2:0:0:
64,192,35251,1,10,0:2:0:0:
192,192,35251,1,10,0:2:0:0:
320,192,35251,1,10,0:2:0:0:
448,192,35251,1,10,0:2:0:0:
448,192,35409,128,10,35725:0:0:0:0:
320,192,35725,128,10,36040:0:0:0:0:
64,192,35962,1,10,0:0:0:0:
192,192,36040,128,10,36356:0:0:0:0:
64,192,36356,128,14,36672:0:0:0:0:
192,192,36672,128,14,36988:0:0:0:0:
320,192,36988,128,14,37304:0:0:0:0:
448,192,37304,128,14,37619:0:0:0:0:
64,192,37619,1,10,0:2:0:0:
64,192,37777,1,10,0:2:0:0:
448,192,37777,1,10,0:2:0:0:
64,192,38093,128,10,38409:0:0:0:0:
320,192,38251,1,2,0:0:0:0:
448,192,38409,128,10,38725:0:0:0:0:
192,192,38567,1,2,0:0:0:0:
64,192,38725,128,10,39040:0:0:0:0:
320,192,38883,1,2,0:0:0:0:
448,192,39040,128,10,39356:0:0:0:0:
192,192,39198,1,2,0:0:0:0:
64,192,39356,128,10,39672:0:0:0:0:
448,192,39514,1,10,0:2:0:0:
320,192,39514,1,10,0:0:0:0:
192,192,39672,1,10,0:0:0:0:
448,192,39830,1,10,0:2:0:0:
320,192,39830,1,10,0:0:0:0:
320,192,39988,1,10,0:0:0:0:
192,192,40067,1,10,0:0:0:0:
64,192,40146,1,10,0:2:0:0:
320,192,40146,1,10,0:2:0:0:
448,192,40146,1,10,0:2:0:0:
64,192,40619,1,10,0:2:0:0:
192,192,40619,1,10,0:2:0:0:
448,192,40619,1,10,0:2:0:0:
448,192,41093,1,10,0:2:0:0:
320,192,41093,1,10,0:2:0:0:
192,192,41093,1,10,0:2:0:0:
64,192,41093,1,10,0:2:0:0:
64,192,41409,128,2,41488:0:0:0:0:
320,192,41488,128,2,41567:0:0:0:0:
448,192,41567,128,2,41646:0:0:0:0:
64,192,41646,128,2,41725:0:0:0:0:
192,192,41725,128,2,41804:0:0:0:0:
64,192,41804,128,2,41883:0:0:0:0:
320,192,41883,128,2,41962:0:0:0:0:
192,192,41962,128,2,42040:0:0:0:0:
64,192,42040,128,2,42119:0:0:0:0:
448,192,42119,128,2,42198:0:0:0:0:
192,192,42198,128,2,42277:0:0:0:0:
320,192,42277,128,2,42356:0:0:0:0:
448,192,42356,128,2,42435:0:0:0:0:
64,192,42435,128,2,42514:0:0:0:0:
192,192,42514,128,2,42593:0:0:0:0:
64,192,42638,128,2,43564:0:0:0:0:
320,192,42638,1,2,0:2:0:0:
448,192,42924,1,2,0:2:0:0:
320,192,43230,1,2,0:2:0:0:
192,192,43536,1,2,0:2:0:0:
320,192,43689,1,2,0:2:0:0:
448,192,43689,1,2,0:2:0:0:
64,192,43995,1,2,0:2:0:0:
192,192,43995,1,2,0:2:0:0:
192,192,44148,1,2,0:2:0:0:
320,192,44148,1,2,0:2:0:0:
64,192,44454,1,2,0:2:0:0:
448,192,44454,1,2,0:2:0:0:
64,192,44760,1,2,0:2:0:0:
448,192,44760,1,2,0:2:0:0:
64,192,45066,1,2,0:2:0:0:
192,192,45220,1,2,0:2:0:0:
320,192,45373,1,2,0:2:0:0:
448,192,45526,128,2,46291:0:0:0:0:
320,192,45679,1,2,0:2:0:0:
192,192,45832,1,2,0:2:0:0:
64,192,45985,1,2,0:2:0:0:
192,192,46138,1,2,0:2:0:0:
320,192,46291,1,2,0:2:0:0:
448,192,46444,1,2,0:2:0:0:
64,192,46597,1,2,0:2:0:0:
448,192,46597,1,2,0:2:0:0:
64,192,46903,128,2,47209:0:0:0:0:
192,192,47209,1,2,0:0:0:0:
320,192,47286,1,2,0:0:0:0:
192,192,47362,1,2,0:0:0:0:
320,192,47439,1,2,0:0:0:0:
192,192,47515,1,2,0:0:0:0:
320,192,47592,1,2,0:0:0:0:
192,192,47669,1,2,0:0:0:0:
320,192,47745,1,2,0:0:0:0:
64,192,47822,1,2,0:2:0:0:
192,192,47822,1,2,0:2:0:0:
448,192,47822,1,2,0:2:0:0:
64,192,48128,1,2,0:2:0:0:
192,192,48128,1,2,0:2:0:0:
320,192,48128,1,2,0:2:0:0:
448,192,48128,1,2,0:2:0:0:
64,192,48434,1,2,0:2:0:0:
448,192,48434,128,2,48587:0:0:0:0:
64,192,48587,1,2,0:2:0:0:
192,192,48740,1,2,0:0:0:0:
320,192,48816,1,2,0:0:0:0:
192,192,48893,1,2,0:0:0:0:
320,192,48970,1,2,0:0:0:0:
192,192,49046,1,2,0:2:0:0:
320,192,49123,1,2,0:0:0:0:
192,192,49199,1,2,0:0:0:0:
320,192,49276,1,2,0:0:0:0:
192,192,49352,1,2,0:2:0:0:
64,192,49352,1,2,0:0:0:0:
448,192,49352,1,2,0:0:0:0:
192,192,49658,1,2,0:2:0:0:
320,192,49811,1,2,0:2:0:0:
448,192,50271,1,2,0:2:0:0:
192,192,50271,1,2,0:2:0:0:
64,192,50577,1,2,0:2:0:0:
320,192,50577,1,2,0:2:0:0:
192,192,50883,1,2,0:2:0:0:
64,192,50883,1,2,0:2:0:0:
64,192,51036,1,2,0:2:0:0:
320,192,51036,1,2,0:2:0:0:
192,192,51112,1,2,0:0:0:0:
320,192,51189,1,2,0:0:0:0:
64,192,51265,1,2,0:0:0:0:
448,192,51342,1,2,0:0:0:0:
192,192,51419,1,2,0:0:0:0:
320,192,51495,1,2,0:0:0:0:
64,192,51495,1,2,0:0:0:0:
448,192,51572,1,2,0:0:0:0:
192,192,51648,1,2,0:0:0:0:
320,192,51725,1,2,0:0:0:0:
192,192,51801,1,2,0:2:0:0:
64,192,51878,1,2,0:0:0:0:
192,192,51954,1,2,0:0:0:0:
320,192,52031,1,2,0:0:0:0:
448,192,52107,1,2,0:2:0:0:
320,192,52184,1,2,0:0:0:0:
192,192,52260,1,2,0:0:0:0:
320,192,52337,1,2,0:0:0:0:
64,192,52413,128,2,53332:0:0:0:0:
192,192,52413,1,2,0:2:0:0:
320,192,52490,1,2,0:0:0:0:
192,192,52566,1,2,0:0:0:0:
448,192,52720,1,2,0:2:0:0:
320,192,52796,1,2,0:0:0:0:
448,192,52873,1,2,0:0:0:0:
320,192,53026,1,2,0:2:0:0:
320,192,53179,1,2,0:0:0:0:
192,192,53332,1,2,0:2:0:0:
448,192,53638,128,2,54556:0:0:0:0:
320,192,53638,1,2,0:2:0:0:
192,192,53714,1,2,0:0:0:0:
320,192,53791,1,2,0:0:0:0:
64,192,53944,1,2,0:2:0:0:
192,192,54021,1,2,0:0:0:0:
64,192,54097,1,2,0:0:0:0:
192,192,54250,1,2,0:2:0:0:
192,192,54403,1,2,0:0:0:0:
320,192,54556,1,2,0:2:0:0:
448,192,54862,1,2,0:2:0:0:
320,192,55015,1,2,0:2:0:0:
192,192,55169,1,2,0:2:0:0:
64,192,55322,128,2,55475:0:0:0:0:
192,192,55628,1,2,0:2:0:0:
320,192,55781,1,2,0:2:0:0:
448,192,55934,1,2,0:2:0:0:
64,192,56087,1,2,0:2:0:0:
448,192,56163,1,2,0:0:0:0:
448,192,56240,1,2,0:2:0:0:
64,192,56316,1,2,0:0:0:0:
64,192,56393,1,2,0:2:0:0:
64,192,56699,1,2,0:2:0:0:
448,192,56699,1,2,0:2:0:0:
192,192,56699,1,2,0:2:0:0:
320,192,56699,1,2,0:2:0:0:
448,192,57005,1,2,0:2:0:0:
320,192,57005,1,2,0:2:0:0:
64,192,57158,1,2,0:2:0:0:
192,192,57158,1,2,0:2:0:0:
192,192,57618,1,2,0:2:0:0:
64,192,57618,1,2,0:2:0:0:
320,192,57924,1,2,0:2:0:0:
448,192,57924,1,2,0:2:0:0:
64,192,58230,1,2,0:2:0:0:
320,192,58230,1,2,0:2:0:0:
64,192,58383,1,2,0:2:0:0:
320,192,58383,1,2,0:2:0:0:
192,192,58842,1,2,0:2:0:0:
448,192,58842,1,2,0:2:0:0:
192,192,59148,1,2,0:2:0:0:
448,192,59148,1,2,0:2:0:0:
64,192,59607,1,2,0:2:0:0:
448,192,59607,1,2,0:2:0:0:
192,192,59760,1,2,0:2:0:0:
320,192,59913,1,2,0:2:0:0:
192,192,60066,1,2,0:2:0:0:
320,192,60220,1,2,0:2:0:0:
192,192,60373,1,2,0:2:0:0:
320,192,60526,1,2,0:2:0:0:
192,192,60679,1,2,0:2:0:0:
320,192,60832,1,2,0:2:0:0:
64,192,60985,1,2,0:2:0:0:
448,192,61138,1,2,0:2:0:0:
64,192,61291,1,2,0:2:0:0:
448,192,61444,1,2,0:2:0:0:
64,192,61521,1,2,0:2:0:0:
448,192,61597,1,2,0:2:0:0:
64,192,61674,1,2,0:2:0:0:
448,192,61750,1,2,0:2:0:0:
64,192,61827,1,2,0:2:0:0:
448,192,61903,1,2,0:2:0:0:
64,192,61980,1,2,0:2:0:0:
448,192,62056,1,2,0:2:0:0:
64,192,62133,1,2,0:2:0:0:
448,192,62250,128,2,62557:0:0:0:0:
192,192,62250,128,2,62557:0:0:0:0:
64,192,62557,1,2,0:0:0:0:
320,192,62557,1,2,0:0:0:0:
64,192,62865,128,2,63173:0:0:0:0:
320,192,62865,128,2,63173:0:0:0:0:
192,192,63173,1,2,0:0:0:0:
448,192,63173,1,2,0:0:0:0:
64,192,63480,1,2,0:0:0:0:
192,192,63634,1,2,0:0:0:0:
320,192,63788,1,2,0:0:0:0:
448,192,63942,1,2,0:0:0:0:
448,192,64173,1,2,0:0:0:0:
64,192,64250,1,2,0:0:0:0:
448,192,64326,1,2,0:0:0:0:
64,192,64403,1,2,0:0:0:0:
448,192,64480,1,2,0:0:0:0:
192,192,64557,1,2,0:0:0:0:
448,192,64711,128,2,65019:0:0:0:0:
320,192,64711,128,2,65019:0:0:0:0:
64,192,65019,1,2,0:0:0:0:
192,192,65019,1,2,0:0:0:0:
64,192,65326,128,2,65634:0:0:0:0:
192,192,65326,128,2,65634:0:0:0:0:
320,192,65634,1,2,0:0:0:0:
448,192,65634,1,2,0:0:0:0:
448,192,65942,1,2,0:0:0:0:
320,192,66096,1,2,0:0:0:0:
192,192,66250,1,2,0:0:0:0:
64,192,66403,1,2,0:0:0:0:
64,192,66634,1,2,0:0:0:0:
448,192,66711,1,2,0:0:0:0:
64,192,66788,1,2,0:0:0:0:
448,192,66865,1,2,0:0:0:0:
64,192,66942,1,2,0:0:0:0:
192,192,67019,1,2,0:0:0:0:
448,192,67173,1,2,0:0:0:0:
320,192,67326,1,2,0:0:0:0:
192,192,67480,1,2,0:0:0:0:
64,192,67634,1,2,0:0:0:0:
192,192,67788,1,2,0:0:0:0:
320,192,67942,1,2,0:0:0:0:
448,192,68096,1,2,0:0:0:0:
320,192,68250,1,2,0:0:0:0:
192,192,68403,1,2,0:0:0:0:
64,192,68557,1,2,0:0:0:0:
192,192,68711,1,2,0:0:0:0:
320,192,68865,1,2,0:0:0:0:
192,192,68942,1,2,0:0:0:0:
320,192,69019,1,2,0:0:0:0:
192,192,69096,1,2,0:0:0:0:
320,192,69173,1,2,0:0:0:0:
192,192,69250,1,2,0:0:0:0:
320,192,69326,1,2,0:0:0:0:
192,192,69403,1,2,0:0:0:0:
320,192,69480,1,2,0:0:0:0:
192,192,69557,1,2,0:0:0:0:
64,192,70942,128,2,72630:0:0:0:0:
448,192,72067,1,2,0:0:0:0:
320,192,72161,1,2,0:0:0:0:
192,192,72255,1,2,0:0:0:0:
320,192,72348,1,2,0:0:0:0:
448,192,72442,1,2,0:0:0:0:
320,192,72536,1,2,0:0:0:0:
192,192,72630,1,2,0:0:0:0:
64,192,81442,5,2,0:0:0:0:
64,192,81630,1,2,0:0:0:0:
320,192,81817,1,2,0:0:0:0:
448,192,81911,1,2,0:0:0:0:
320,192,82005,1,2,0:0:0:0:
192,192,82098,1,2,0:0:0:0:
64,192,82192,1,2,0:0:0:0:
192,192,82286,1,2,0:0:0:0:
64,192,82567,1,2,0:0:0:0:
192,192,82661,1,2,0:0:0:0:
64,192,82755,1,2,0:0:0:0:
448,192,82848,1,2,0:0:0:0:
320,192,82942,1,2,0:0:0:0:
448,192,83036,1,2,0:0:0:0:
64,192,83317,1,2,0:0:0:0:
192,192,83317,1,2,0:0:0:0:
320,192,83505,1,2,0:0:0:0:
448,192,83505,1,2,0:0:0:0:
64,192,83692,1,2,0:0:0:0:
192,192,83692,1,2,0:0:0:0:
320,192,83880,1,2,0:0:0:0:
448,192,83880,1,2,0:0:0:0:
64,192,84067,1,2,0:0:0:0:
192,192,84067,1,2,0:0:0:0:
320,192,84255,1,2,0:0:0:0:
448,192,84255,1,2,0:0:0:0:
64,192,84348,1,2,0:0:0:0:
192,192,84348,1,2,0:0:0:0:
320,192,84442,1,2,0:0:0:0:
448,192,84442,1,2,0:0:0:0:
64,192,84536,1,2,0:0:0:0:
192,192,84536,1,2,0:0:0:0:
448,192,84630,1,2,0:0:0:0:
320,192,84817,1,2,0:0:0:0:
448,192,85005,1,2,0:0:0:0:
320,192,85192,1,2,0:0:0:0:
192,192,85380,1,2,0:0:0:0:
320,192,85567,1,2,0:0:0:0:
192,192,85755,1,2,0:0:0:0:
320,192,85942,1,2,0:0:0:0:
192,192,86130,1,2,0:0:0:0:
64,192,86317,1,2,0:0:0:0:
192,192,86505,1,2,0:0:0:0:
64,192,86692,1,2,0:0:0:0:
192,192,86880,1,2,0:0:0:0:
320,192,86880,1,2,0:0:0:0:
192,192,87067,1,2,0:0:0:0:
320,192,87067,1,2,0:0:0:0:
64,192,87255,1,2,0:0:0:0:
448,192,87348,1,2,0:0:0:0:
64,192,87442,1,2,0:0:0:0:
448,192,87536,1,2,0:0:0:0:
64,192,87630,1,2,0:0:0:0:
64,192,87817,1,2,0:0:0:0:
64,192,88005,1,2,0:0:0:0:
64,192,88192,1,2,0:0:0:0:
64,192,88380,1,2,0:0:0:0:
192,192,88380,1,2,0:0:0:0:
64,192,88567,1,2,0:0:0:0:
192,192,88567,1,2,0:0:0:0:
64,192,88755,1,2,0:0:0:0:
192,192,88755,1,2,0:0:0:0:
64,192,88942,1,2,0:0:0:0:
192,192,88942,1,2,0:0:0:0:
64,192,89130,1,2,0:0:0:0:
192,192,89130,1,2,0:0:0:0:
320,192,89130,1,2,0:0:0:0:
64,192,89317,1,2,0:0:0:0:
192,192,89317,1,2,0:0:0:0:
320,192,89317,1,2,0:0:0:0:
64,192,89505,1,2,0:0:0:0:
192,192,89505,1,2,0:0:0:0:
320,192,89505,1,2,0:0:0:0:
64,192,89692,1,2,0:0:0:0:
192,192,89692,1,2,0:0:0:0:
320,192,89692,1,2,0:0:0:0:
64,192,89880,1,2,0:0:0:0:
192,192,89880,1,2,0:0:0:0:
320,192,89880,1,2,0:0:0:0:
448,192,89880,1,2,0:0:0:0:
64,192,90067,1,2,0:0:0:0:
192,192,90067,1,2,0:0:0:0:
320,192,90067,1,2,0:0:0:0:
448,192,90067,1,2,0:0:0:0:
64,192,90255,1,2,0:0:0:0:
192,192,90255,1,2,0:0:0:0:
448,192,90255,1,2,0:0:0:0:
320,192,90255,1,2,0:0:0:0:
192,192,90348,1,2,0:0:0:0:
64,192,90348,1,2,0:0:0:0:
192,192,90442,1,2,0:0:0:0:
320,192,90442,1,2,0:0:0:0:
448,192,90442,1,2,0:0:0:0:
64,192,90442,1,0,0:0:0:0:
320,192,90536,1,2,0:0:0:0:
448,192,90536,1,2,0:0:0:0:
64,192,90630,1,2,0:0:0:0:
320,192,90817,1,2,0:0:0:0:
192,192,91005,1,2,0:0:0:0:
448,192,91192,1,2,0:0:0:0:
64,192,91567,1,2,0:0:0:0:
320,192,91567,1,2,0:0:0:0:
192,192,91942,1,2,0:0:0:0:
320,192,91942,1,2,0:0:0:0:
448,192,91942,1,2,0:0:0:0:
64,192,92317,1,2,0:0:0:0:
320,192,92411,1,2,0:0:0:0:
64,192,92505,1,2,0:0:0:0:
320,192,92598,1,2,0:0:0:0:
64,192,92692,1,2,0:0:0:0:
64,192,92880,1,2,0:0:0:0:
320,192,92880,1,2,0:0:0:0:
192,192,92880,1,2,0:0:0:0:
448,192,93255,1,2,0:0:0:0:
192,192,93348,1,2,0:0:0:0:
448,192,93442,1,2,0:0:0:0:
192,192,93536,1,2,0:0:0:0:
64,192,93630,1,2,0:0:0:0:
448,192,93630,1,2,0:0:0:0:
192,192,93723,1,2,0:0:0:0:
320,192,93817,1,2,0:0:0:0:
448,192,93911,1,2,0:0:0:0:
448,192,94005,1,2,0:0:0:0:
64,192,94005,1,2,0:0:0:0:
320,192,94098,1,2,0:0:0:0:
192,192,94192,1,2,0:0:0:0:
64,192,94286,1,2,0:0:0:0:
64,192,94380,1,2,0:0:0:0:
448,192,94380,1,2,0:0:0:0:
192,192,94473,1,2,0:0:0:0:
320,192,94567,1,2,0:0:0:0:
448,192,94661,1,2,0:0:0:0:
448,192,94755,1,2,0:0:0:0:
64,192,94755,1,2,0:0:0:0:
320,192,94848,1,2,0:0:0:0:
192,192,94942,1,2,0:0:0:0:
64,192,95036,1,2,0:0:0:0:
64,192,95130,1,2,0:0:0:0:
320,192,95130,1,2,0:0:0:0:
192,192,95223,1,2,0:0:0:0:
320,192,95317,1,2,0:0:0:0:
448,192,95411,1,2,0:0:0:0:
64,192,95505,1,2,0:0:0:0:
320,192,95505,1,2,0:0:0:0:
192,192,95598,1,2,0:0:0:0:
320,192,95692,1,2,0:0:0:0:
448,192,95786,1,2,0:0:0:0:
448,192,95880,1,2,0:0:0:0:
192,192,95880,1,2,0:0:0:0:
320,192,95973,1,2,0:0:0:0:
192,192,96067,1,2,0:0:0:0:
64,192,96161,1,2,0:0:0:0:
448,192,96255,1,2,0:0:0:0:
192,192,96255,1,2,0:0:0:0:
320,192,96348,1,2,0:0:0:0:
192,192,96442,1,2,0:0:0:0:
64,192,96536,1,2,0:0:0:0:
